<?xml version="1.0" encoding="UTF-8" standalone="no"?>
<svg
   xmlns:dc="http://purl.org/dc/elements/1.1/"
   xmlns:cc="http://creativecommons.org/ns#"
   xmlns:rdf="http://www.w3.org/1999/02/22-rdf-syntax-ns#"
   xmlns:svg="http://www.w3.org/2000/svg"
   xmlns="http://www.w3.org/2000/svg"
   id="svg336"
   viewBox="0 0 317796.55 168774.84"
   style="clip-rule:evenodd;fill-rule:evenodd;image-rendering:optimizeQuality;shape-rendering:geometricPrecision;text-rendering:geometricPrecision"
   version="1.1"
   height="785.41718mm"
   width="1478.9133mm"
   xml:space="preserve"><metadata
   id="metadata340"><rdf:RDF><cc:Work
       rdf:about=""><dc:format>image/svg+xml</dc:format><dc:type
         rdf:resource="http://purl.org/dc/dcmitype/StillImage" /><dc:title></dc:title></cc:Work></rdf:RDF></metadata>
 <defs
   id="defs283">
  <font
   font-weight="400"
   font-style="normal"
   font-variant="normal"
   horiz-adv-x="644"
   id="FontID0"
   horiz-origin-x="0"
   horiz-origin-y="0"
   vert-origin-x="45"
   vert-origin-y="90"
   vert-adv-y="90">
	<font-face
   id="font-face176"
   font-family="Gothic725 Blk BT">
	</font-face>
   <missing-glyph
   id="missing-glyph180"><path
     id="path178"
     d="M0 0z" /></missing-glyph>
   <glyph
   id="glyph184"
   horiz-adv-x="308"
   unicode="f"><path
     id="path182"
     d="M75.9987 0l0 416.001 -76.9991 0 0 95.9973 76.9991 0c-0.997342,10.8339 -1.49905,18.5025 -1.66629,23.5014 -0.167237,4.83468 -0.331434,9.16764 -0.331434,13.1661 0,55.6687 12.9989,95.8331 38.9997,120.502 25.8336,24.4987 68.3332,36.8317 127.331,36.8317 13.0019,0 26.1681,-0.833146 39.6687,-2.49944 13.3334,-1.49905 27.4999,-4.16573 41.9978,-7.66859l0 -109.832 -25.3319 0c-28.0016,0 -46.3339,-3.66706 -55.3343,-10.8339 -8.83317,-7.16688 -13.3334,-21.4976 -13.3334,-42.9982l0 -20.1688 93.9995 0 0 -95.9973 -93.9995 0 0 -416.001 -152 0z" /></glyph>
   <glyph
   id="glyph188"
   horiz-adv-x="764"
   unicode="w"><path
     id="path186"
     d="M143.999 0l-147.999 525 155.834 0 78.1657 -381.833 88.0001 381.833 140.001 0 72.8327 -381.833 99.1664 381.833 144.001 0 -168.001 -525 -154 0 -73.9996 354.999 -80.9998 -354.999 -153.001 0z" /></glyph>
   <glyph
   id="glyph192"
   horiz-adv-x="342"
   unicode="t"><path
     id="path190"
     d="M230 183.666c0,-27.4997 3.5004,-45.8329 10.5002,-54.5 6.9998,-8.83292 20.1673,-13.1665 39.3336,-13.1665 4.6662,0 10.3334,0.166829 17.1664,0.667318 6.83398,0.499483 14.8338,1.33263 24.0003,2.3326l0 -119c-15.8337,-3.33357 -31.6664,-5.833 -47.1665,-7.50029 -15.6669,-1.66628 -31.0001,-2.49943 -46.3334,-2.49943 -57.4999,0 -96.6666,12.8328 -117.834,38.4994 -21.1662,25.6666 -31.6664,79.3334 -31.6664,161l0 226.5 -75.9999 0 0 95.9993 75.9999 0 0 164 152 0 0 -164 91.0005 0 0 -95.9993 -91.0005 0 0 -232.334z" /></glyph>
   <glyph
   id="glyph196"
   horiz-adv-x="524"
   unicode="c"><path
     id="path194"
     d="M521 123c-25.0003,-45.4992 -57.8335,-80.3324 -98.3339,-104.666 -40.4994,-24.1662 -86.3332,-36.3337 -137.5,-36.3337 -79.3334,0 -142.334,24.5008 -189.167,73.6673 -46.667,49.1665 -70,115.666 -70,199.333 0,88.5 24.6666,158.5 73.9999,209.833 49.1665,51.5001 115.833,77.1667 199.834,77.1667 49.8328,0 92.4999,-10.3334 128.166,-31.0001 35.4995,-20.6668 65.3328,-52.3332 88.9995,-94.9993l-113 -66.0002c-10.9997,23.1662 -24.9993,40.4994 -41.4993,51.8327 -16.6669,11.5002 -36.5005,17.1674 -59.1672,17.1674 -38.1668,0 -68.1669,-13.8338 -89.8337,-41.6672 -21.6657,-27.8334 -32.4996,-66.166 -32.4996,-115 0,-48.3333 10.5002,-86.5001 31.4996,-114.833 21.0004,-28.3339 49.0006,-42.5003 84.1675,-42.5003 25.9993,0 48.3333,6.66614 66.6665,19.8336 18.3332,13.1665 33.3327,33.1659 44.6661,60.1661l113.001 -62.0003z" /></glyph>
   <glyph
   id="glyph200"
   horiz-adv-x="310"
   unicode="-"><path
     id="path198"
     d="M36 197l0 141.001 238 0 0 -141.001 -238 0z" /></glyph>
   <glyph
   id="glyph204"
   horiz-adv-x="574"
   unicode="n"><path
     id="path202"
     d="M56.9994 0l0 524.999 152 0 0 -49.0002c19.501,20.5013 41.6663,35.8344 66.1672,45.8342 24.4993,10.1665 52.1662,15.1664 82.6657,15.1664 54.8337,0 95.5012,-18.0006 122.168,-54.1668 26.6666,-36.1662 39.9991,-91.5 39.9991,-166l0 -316.833 -151.999 0 0 309.001c0,35.4994 -6.00019,61.4991 -17.8338,78.1659 -12.0004,16.5001 -30.8329,24.8327 -56.8343,24.8327 -30.3328,0 -51.9995,-7.66574 -64.9985,-23.1655 -12.834,-15.4998 -19.3343,-42.0013 -19.3343,-79.8331l0 -309.001 -152 0z" /></glyph>
   <glyph
   id="glyph208"
   horiz-adv-x="543"
   unicode="k"><path
     id="path206"
     d="M56.9999 0l0 706 152 0 0 -380.666 175.666 199.666 169.334 0 -180 -185.167 200.999 -339.833 -178.166 0 -130 228 -57.8329 -57.9992 0 -170 -152 0z" /></glyph>
   <glyph
   id="glyph212"
   horiz-adv-x="493"
   unicode="y"><path
     id="path210"
     d="M-3.00053 525l163.168 0 87.9997 -380.001 88.8336 380.001 159.999 0 -173.666 -542c-21.1675,-66.1665 -45.3341,-110.667 -72.4997,-133.501 -27.1671,-23.0006 -66.5001,-34.4994 -117.834,-34.4994 -14.334,0 -28.4998,0.498858 -42.5003,1.49952 -14.0005,0.999191 -27.8327,2.33341 -41.4996,4.33327l0.500334 124.167c9.99929,-1.00067 19.3329,-1.83308 27.8327,-2.33341 8.49977,-0.500334 15.5,-0.667111 21.0007,-0.667111 25.9996,0 44.4987,3.33408 55.3333,10.0008 10.8332,6.66669 16.3324,17.6666 16.3324,32.9999 0,6.16635 -1.33275,14.4993 -4.16649,24.8337 -2.66697,10.4996 -7.66588,26.1664 -14.8329,47.3324l-154.001 467.834z" /></glyph>
   <glyph
   id="glyph216"
   horiz-adv-x="574"
   unicode="h"><path
     id="path214"
     d="M57 0l0 706 152 0 0 -230c19.5,20.5 41.6665,35.8335 66.1665,45.8335 24.5,10.1665 52.167,15.1665 82.667,15.1665 54.833,0 95.5,-18 122.166,-54.1665 26.6665,-36.167 40,-91.5 40,-166l0 -316.834 -152 0 0 309c0,35.5 -6,61.5 -17.8335,78.1665 -12,16.5 -30.833,24.8335 -56.833,24.8335 -30.3335,0 -52,-7.66648 -65,-23.1665 -12.8335,-15.5 -19.3335,-42 -19.3335,-79.8335l0 -309 -152 0z" /></glyph>
   <glyph
   id="glyph220"
   horiz-adv-x="562"
   unicode="e"><path
     id="path218"
     d="M179 322l204 0c-3.83406,34.3337 -14.6669,60.8335 -32.3338,79.3334 -17.5,18.5 -40.833,27.6666 -69.8332,27.6666 -28.8334,0 -51.8337,-9.16658 -69.3337,-27.4997 -17.5,-18.3332 -28.3329,-44.8339 -32.4996,-79.5003zm-0.999972 -93.0004c1.33363,-44.1666 11.8328,-78.1666 31.4996,-101.666 19.6668,-23.4998 47.5002,-35.3327 83.3333,-35.3327 27.0002,0 50.8337,7.99977 71.3337,23.8325 20.4999,16.0006 37.8331,39.6672 51.8337,71.1668l113 -55.9994c-23.8335,-48.8338 -57.1672,-85.8338 -100.334,-111.167 -43.1666,-25.1671 -94.6667,-37.8341 -154.666,-37.8341 -76.1667,0 -136.501,24.334 -181.167,73.001 -44.5003,48.666 -66.8333,114.332 -66.8333,196.999 0,86.8337 23.6667,156.834 71,209.666 47.5002,52.8337 109.499,79.3334 186.333,79.3334 76.4994,0 137.166,-25.4998 182,-76.6662 44.8329,-51.1674 67.1659,-120.834 67.1659,-209.501 0,-2.49943 -0.332654,-6.83297 -0.833142,-12.666 -0.499483,-5.83401 -0.666313,-10.1676 -0.666313,-13.1675l-353 0z" /></glyph>
   <glyph
   id="glyph224"
   horiz-adv-x="537"
   unicode="s"><path
     id="path222"
     d="M111.833 173c21.5,-25.1662 45.334,-44.0003 71.5005,-56.3341 26.1665,-12.4989 55.5005,-18.6658 87.6672,-18.6658 24.666,0 44.1654,4.49974 58.4998,13.4992 14.3328,8.83437 21.5,20.9998 21.5,36.3346 0,7.83245 -3.0009,15.6665 -9.00109,23.3323 -5.99857,7.66736 -13.3325,12.834 -21.6667,15.8332 -11.4986,4.1663 -31.1663,8.83437 -59.3334,13.6675 -28.1654,4.83317 -49.8322,9.66634 -65.1652,14.1661 -52.3345,15.3331 -89.501,34.0005 -111.668,56.0007 -22.1669,21.8334 -33.1653,50.9992 -33.1653,87.1654 0,57.5011 20.1663,102.834 60.3321,135.667 40.1674,32.8335 95.1678,49.3336 164.668,49.3336 40.4992,0 78.1659,-6.1669 113.167,-18.334 34.9992,-12.1655 67.4993,-30.6662 97.832,-55.4989l-86.1667 -93.1672c-21.6667,18.1673 -43.9987,31.8332 -66.8324,41.1661 -22.8337,9.16781 -45.8342,13.8343 -68.9997,13.8343 -18.8341,0 -33.8338,-4.33302 -45.1673,-13.0007 -11.1668,-8.49932 -16.8335,-19.9995 -16.8335,-34.3323 0,-21.3333 27.8336,-38.3335 83.5009,-50.6674 10.8334,-2.66585 19.166,-4.49974 25.4996,-5.83347 79.8331,-18.8325 131.999,-39.4989 156.834,-61.9992 24.8327,-22.5003 37.1665,-55.5005 37.1665,-99.1674 0,-55.9991 -22.1669,-100.666 -66.6673,-134 -44.4988,-33.3337 -104.666,-50.0005 -180.499,-50.0005 -57.001,0 -105.666,9.33452 -146,27.8336 -40.4992,18.5007 -71.6672,45.8342 -93.8341,81.8337l92.8338 81.3335z" /></glyph>
   <glyph
   id="glyph228"
   horiz-adv-x="605"
   unicode="b"><path
     id="path226"
     d="M422 262.333c0,49.9999 -9.33373,88.9999 -27.8335,116.833 -18.4998,27.8335 -44.6666,41.8336 -78.1667,41.8336 -33.1668,0 -59.3331,-14.0001 -78.4999,-42.1668 -19.0002,-28.1667 -28.5,-66.9996 -28.5,-116.5 0,-50.1671 9.49982,-89.3337 28.3334,-117.333 18.833,-28.0001 45.1664,-42.0002 78.6665,-42.0002 33.5001,0 59.6669,14.0001 78.1667,41.8336 18.4998,27.833 27.8335,66.9996 27.8335,117.5zm-365 443.667l152 0 0 -220.167c18.4998,17.1663 39.4999,29.9995 62.9998,38.4996 23.3333,8.50011 49.3335,12.6666 78,12.6666 67.0001,0 121.333,-25.1666 162.834,-75.6663 41.4998,-50.5003 62.1667,-116.833 62.1667,-199.333 0,-84.0004 -19.8332,-149.834 -59.5003,-197.5 -39.6665,-47.6668 -94.1667,-71.4999 -163.5,-71.4999 -33.1663,0 -62.6665,5.16671 -88.3335,15.3335 -25.6664,10.3334 -48,25.9997 -66.833,46.8331l0 -55.1666 -139.833 0 0 706z" /></glyph>
   <glyph
   id="glyph232"
   horiz-adv-x="605"
   unicode="p"><path
     id="path230"
     d="M316 108c33.1669,0 59.1662,14.1664 77.833,42.3335 18.8336,28.166 28.167,67.4996 28.167,117.833 0,50.1674 -9.33341,89.1673 -27.8334,117.001 -18.5,27.8334 -44.6671,41.833 -78.1666,41.833 -33.1669,0 -59.333,-13.9996 -78.5003,-41.9998 -18.9995,-28.0002 -28.4997,-67.0001 -28.4997,-116.834 0,-50.1664 9.50024,-89.3332 28.4997,-117.666 19.1673,-28.3339 45.3334,-42.5003 78.5003,-42.5003zm-259 -284l0 701 139.833 0 0 -49.6669c18.8326,20.6668 41.1667,36.1668 66.8333,46.3334 25.6666,10.1665 55.1663,15.3332 88.3332,15.3332 69.3327,0 123.833,-23.8335 163.5,-71.4995 39.6662,-47.667 59.4998,-113.667 59.4998,-197.501 0,-82.8328 -20.6668,-149.499 -62.1661,-199.999 -41.5003,-50.6669 -95.8335,-75.9999 -162.834,-75.9999 -28.6665,0 -54.5,4.16672 -77.834,12.666 -23.1662,8.50026 -44.3324,21.6667 -63.1661,39.1667l0 -219.833 -152 0z" /></glyph>
   <glyph
   id="glyph236"
   horiz-adv-x="866"
   unicode="m"><path
     id="path234"
     d="M56.9999 0l0 525 152 0 0 -49.0004c19.1672,19.8338 40.8332,35.0012 64.6668,45.3333 23.9999,10.501 49.1667,15.6677 75.4992,15.6677 31.6668,0 59.1674,-7.00024 82.3344,-21.0007 23.3333,-13.9992 42.4991,-34.9999 57.5002,-62.8332 23.3333,27.8333 48.4988,48.834 75.1665,62.8332 26.6664,14.0005 55.3327,21.0007 85.8325,21.0007 54.6674,0 95.1666,-18.0002 121.5,-54.0007 26.3337,-35.8329 39.5,-91.3332 39.5,-166.166l0 -316.834 -152 0 0 308.999c0,36.1668 -5.99965,62.3342 -17.8326,78.6673 -11.8343,16.1667 -30.8338,24.3339 -57.1675,24.3339 -25.6658,0 -44.3327,-8.16716 -56.1657,-24.6678 -11.8343,-16.333 -17.8339,-42.4991 -17.8339,-78.3333l0 -308.999 -152 0 0 308.999c0,36.1668 -5.99965,62.3342 -17.8326,78.6673 -11.8343,16.1667 -30.8338,24.3339 -56.8336,24.3339 -25.8334,0 -44.6667,-8.16716 -56.5009,-24.6678 -11.833,-16.333 -17.8326,-42.4991 -17.8326,-78.3333l0 -308.999 -152 0z" /></glyph>
   <glyph
   id="glyph240"
   horiz-adv-x="267"
   unicode="j"><path
     id="path238"
     d="M209 525l0 -537.167c0,-64.8331 -11.3337,-110 -33.9999,-135.5 -22.8334,-25.5003 -62.1667,-38.3336 -118.334,-38.3336 -6.50018,0 -21.0001,0.833614 -43.3331,2.50031 -10.3334,0.666468 -18.5003,1.16632 -24.3335,1.33294l-0.499851 120.167 14.4999 0c21.0001,0 35.3334,4.66686 42.8333,13.8334 7.49988,9.3332 11.1665,34.3332 11.1665,74.9999l0 498.167 152 0zm-152 60.9998l0 120 152 0 0 -120 -152 0z" /></glyph>
   <glyph
   id="glyph244"
   horiz-adv-x="605"
   unicode="g"><path
     id="path242"
     d="M290 133.999c31.5004,0 57.1664,12.8345 76.6662,38.5006 19.4997,25.8329 29.3337,60.3337 29.3337,103.5 0,43.3342 -9.83399,78.3339 -29.5005,105.001 -19.8333,26.6667 -45.1658,40.0001 -76.4994,40.0001 -31.3336,0 -56.9997,-13.1666 -76.9997,-39.4998 -20.0001,-26.3347 -30.0008,-60.5005 -30.0008,-102.5 0,-43.3342 9.83399,-78.3339 29.5005,-105.001 19.8333,-26.6667 45.4994,-40.0001 77.5,-40.0001zm257.999 391.001l0 -510.833c0,-39.6666 -2.99905,-69.3338 -9.0001,-88.8336 -5.99957,-19.4997 -16.3324,-36.0004 -31,-49.3338 -21.8331,-20.5004 -51.4989,-35.8336 -88.8321,-45.8329 -37.5014,-10.1675 -83.0008,-15.1665 -136.835,-15.1665 -82.0001,0 -143.667,13.6655 -184.999,40.9993 -41.3329,27.3339 -62,67.9996 -62,121.833 0,1.6663 0.166778,4.33327 0.500334,8.16621 0.333556,3.66764 0.500334,6.66669 0.500334,9.0001l163.833 0 0 -1.99986c0,-26.6667 7.66588,-46.6668 23.3327,-60.0002 15.6668,-13.3334 39.1662,-20.0001 70.333,-20.0001 36.5007,0 62.6671,7.3338 78.5007,21.9999 15.8336,14.6676 23.6662,38.8341 23.6662,72.8332l0 67.5008c-22.1667,-17.3331 -45.8329,-30.1661 -71.0001,-38.6674 -25.1672,-8.49977 -52.8332,-12.6663 -82.6672,-12.6663 -63.4996,0 -114.666,23.1674 -153.833,69.5006 -38.9995,46.5 -58.5007,107.833 -58.5007,184.332 0,77.168 20.8339,139.667 62.6671,187.501 41.8332,47.8328 96.3341,71.6658 163.333,71.6658 28.001,0 53.5003,-4.16649 76.5009,-12.6663 23.1659,-8.33299 44.3334,-21.166 63.4996,-38.3338l0 39.0009 152 0z" /></glyph>
   <glyph
   id="glyph248"
   horiz-adv-x="678"
   unicode="S"><path
     id="path246"
     d="M145 209c22.5001,-29.3337 49.5002,-51.3333 81.3337,-66.0006 31.6664,-14.6664 67.9999,-21.9996 108.666,-21.9996 39.1667,0 70.3335,7.33319 93.8337,22.1667 23.5002,14.8335 35.1663,34.4995 35.1663,58.9999 0,39.0005 -49.8336,65.8335 -149.666,80.4998 -22.3339,3.66706 -39.8334,6.33309 -52.1672,8.3333 -74.8335,12.3337 -129.5,34.1671 -164.166,65.6672 -34.6667,31.333 -52,74.6664 -52,130 0,70.3325 25.6666,127.166 77.1662,170.333 51.5004,43.3334 119.167,64.9996 203.167,64.9996 65.1667,0 123.5,-11.1665 175.334,-33.3332 51.6667,-22.333 95.833,-55.1666 132.333,-98.8333l-123.999 -93.8337c-27.8331,30.3338 -56.1667,52.5006 -85.167,66.6674 -28.9994,14.1668 -60.4995,21.3328 -94.8329,21.3328 -32.8336,0 -59.167,-6.83267 -78.6668,-20.4999 -19.4998,-13.6663 -29.3337,-31.9997 -29.3337,-54.667 0,-20.6661 8.83382,-36.1664 26.6668,-46.9995 17.6667,-10.6669 55.8333,-20.3337 114.166,-28.8332 51.3333,-7.50035 88.5007,-13.5001 111.333,-18.3335 22.6673,-4.66717 39.3339,-9.33341 49.8336,-13.8334 43.1671,-18.833 74.1668,-41.8337 92.9998,-69 18.6668,-27.1663 28.0002,-62.4998 28.0002,-105.833 0,-74.1668 -28.0002,-133.167 -84.1669,-177.167 -56.1667,-43.8339 -132.5,-65.8335 -228.833,-65.8335 -72.3328,0 -135.166,12.5 -188.833,37.4999 -53.4997,25.1671 -95.833,61.833 -127.167,110.333l129 78.1672z" /></glyph>
   <glyph
   id="glyph250"
   horiz-adv-x="310"
   unicode=" " />
   <glyph
   id="glyph254"
   horiz-adv-x="574"
   unicode="u"><path
     id="path252"
     d="M516 524.999l0 -524.999 -152 0 0 49.0002c-20.333,-20.8331 -42.4998,-36.1662 -66.6657,-46.1676 -24.1675,-9.83306 -51.5009,-14.8329 -82.0004,-14.8329 -54.8337,0 -95.6663,18.0006 -122.333,54.1668 -26.6666,36.1662 -40.0007,91.5 -40.0007,166l0 316.833 152 0 0 -308.999c0,-35.501 5.83347,-61.334 17.6671,-77.6674 11.6653,-16.1667 30.3328,-24.3326 56.1658,-24.3326 30.9996,0 52.9998,7.66574 65.8337,23.0004 12.834,15.1664 19.3327,41.6663 19.3327,78.9995l0 308.999 152 0z" /></glyph>
   <glyph
   id="glyph258"
   horiz-adv-x="604"
   unicode="d"><path
     id="path256"
     d="M290 421c-33.5,0 -59.8335,-14 -78.6665,-42 -18.8335,-28 -28.3335,-67 -28.3335,-116.666 0,-50.167 9.5,-89.3335 28.3335,-117.334 18.833,-28 45.1665,-42 78.6665,-42 33.1665,0 59.1665,14 77.8335,42 18.833,28 28.1665,67.1665 28.1665,117.334 0,49.6665 -9.33352,88.6665 -28.1665,116.666 -18.667,28 -44.667,42 -77.8335,42zm258 285l0 -706 -138.834 0 0 55.1665c-18.833,-20.833 -41.1665,-36.5 -67,-46.833 -26,-10.167 -55.6665,-15.3335 -89.1665,-15.3335 -68,0 -122.166,23.3335 -162.5,70 -40.3335,46.8335 -60.5,110 -60.5,189.834 0,86.833 20.3335,156 61.1665,207.333 40.8335,51.167 95.5,76.8335 163.834,76.8335 28.6665,0 54.6665,-4.16648 78,-12.6665 23.5,-8.5 44.5,-21.3335 63,-38.5l0 220.166 152 0z" /></glyph>
   <glyph
   id="glyph262"
   horiz-adv-x="559"
   unicode="a"><path
     id="path260"
     d="M354 251c-7.16663,-1.99994 -17.5,-4.50038 -30.8333,-7.83295 -99.4997,-24.334 -149.167,-55.1673 -149.167,-92.1673 0,-18.1663 5.99983,-32.4996 18.1663,-43.1666 12.0007,-10.5002 28.6665,-15.8327 49.5001,-15.8327 35,0 62.4997,11.3333 82.3334,34.1659 20.0004,22.6667 30.0002,54.5 30.0002,95.1672l0 29.6665zm12.1665 -192.834c-19.9994,-25.333 -43.3335,-44.1666 -70.1669,-56.6657 -26.6666,-12.3333 -57.1662,-18.5 -91.4999,-18.5 -52.3332,0 -94.1662,14.3333 -125.5,42.9998 -31.3328,28.4997 -46.9997,66.3328 -46.9997,113.167 0,36 9.50024,67.6664 28.6665,94.8335 19.1663,27.1661 46.667,47.8328 82.667,61.8324 25.1661,9.66706 71,21.1672 137.666,34.5005 31.6664,6.50032 55.9994,11.8328 73,15.6669l0 23.1662c0,26.0003 -5.66718,44.6671 -16.8337,56.0004 -11.1665,11.1665 -29.6665,16.8327 -55.3331,16.8327 -25.4998,0 -44.5003,-5.33251 -56.8336,-16.1664 -12.3333,-10.667 -18.9995,-27.6666 -19.9994,-50.8337l-152.001 0 0 2.00095c0,52.3332 20.0004,92.9994 59.8335,121.833 39.9999,28.8334 96.334,43.1666 169.334,43.1666 80.1666,0 137.5,-13.9996 172,-41.833 34.4995,-27.8334 51.8327,-74.3336 51.8327,-139.334l0 -5.99983 -2.83309 -238.5 0 -23.333c0,-26.1671 1.1668,-46.3334 3.66623,-60.5008 2.3336,-14.1664 6.16666,-24.9993 11.3333,-32.4996l-144.333 0c-2.50043,7.50029 -4.50038,15.5001 -5.66718,24.0003 -1.33363,8.49926 -1.99994,17.1664 -1.99994,25.9993l0 8.1666z" /></glyph>
   <glyph
   id="glyph266"
   horiz-adv-x="360"
   unicode="r"><path
     id="path264"
     d="M57.0004 0l0 525 146.167 0 0 -53.8337c23.9993,18.0005 48.8328,32.0001 74.4994,41.9998 25.4998,9.83389 51.3332,15.5001 77.3335,16.8337l0 -141c-3.5004,0.333659 -7.33346,0.499483 -11.5002,0.666313 -3.99989,0.166829 -9.83289,0.333659 -17.3332,0.333659 -42.3335,0 -72.3336,-7.50029 -90.3331,-22.6667 -17.8337,-15.1664 -26.8334,-40.3335 -26.8334,-75.5004l0 -291.833 -152 0z" /></glyph>
   <glyph
   id="glyph270"
   horiz-adv-x="595"
   unicode="o"><path
     id="path268"
     d="M181 262.333c0,-48 10.5,-86.0003 31.5001,-114.167 20.9996,-28.1662 49.1663,-42.1663 84.3331,-42.1663 35.1668,0 63.3335,14.1667 84.5002,42.5 21.1667,28.3334 31.6668,66.1665 31.6668,113.833 0,47.8334 -10.5,85.8332 -31.5001,114.167 -21.0001,28.3334 -49.1668,42.5 -84.6668,42.5 -34.833,0 -62.8331,-14.3333 -83.9998,-42.9999 -21.1667,-28.6666 -31.8334,-66.5003 -31.8334,-113.667zm116 -279.334c-81.3334,0 -146.833,25.5003 -196.5,76.6671 -49.6667,50.9996 -74.5,118.666 -74.5,202.667 0,83.5 24.8333,151.167 74.6666,202.5 49.8333,51.5 115.333,77.1664 196.333,77.1664 81.9999,0 147.833,-25.6664 197.5,-76.8332 49.6667,-51.3334 74.5,-119 74.5,-202.833 0,-83.6666 -25,-151.167 -74.9999,-202.5 -49.9999,-51.1668 -115.667,-76.8337 -197,-76.8337z" /></glyph>
   <glyph
   id="glyph274"
   horiz-adv-x="272"
   unicode="l"><path
     id="path272"
     d="M59.0013 706l151.997 0 0 -706 -151.997 0 0 706z" /></glyph>
   <glyph
   id="glyph278"
   horiz-adv-x="267"
   unicode="i"><path
     id="path276"
     d="M209 524.999l0 -524.999 -152 0 0 524.999 152 0zm-152 61.0006l0 120.001 152 0 0 -120.001 -152 0z" /></glyph>
  </font>
</defs>
</svg>
